Información del archivo en el servidor
N° de Links: 4
Servidor: UploadStation
Tamaño: 2.20 GB

Sinopsis
En una residencia de ancianos, un hombre mayor (James Garner) lee a una mujer (Gena Rowlands) una historia
de amor escrita en su viejo libro de notas. El libro cuenta la vida de Noah y Allie, dos jóvenes adolescentes
de Carolina del Norte que, a pesar de vivir en dos ambientes sociales muy diferentes, pasan un verano
idílico juntos antes de ser separados, primero por sus padres, y más tarde por la Segunda Guerra
Mundial..

Caps





Ficha Tenica

Titulo Original The Notebook
Genero Drama romántico.
Año 2004
Pais Estados Unidos
Director Nick Cassavetes
Guion Jeremy Leven & Jan Sardi (Novela: Nicholas Sparks)
Musica Aaron Zigman
Fotografia Robert Fraisse
Productora New Line Cinema
Reparto
Ryan Gosling, Rachel McAdams, James Garner, Sam Shepard,
Gena Rowlands, James Marsden, Kevin Connolly, Joan Allen

Datos de ripeo

General
Complete name : files/libro_pasiones_HDRip_By_EvilSega.avi
Format : AVI
Format/Info : Audio Video Interleave
Format profile : OpenDML
File size : 2.20 GiB
Duration : 2h 3mn
Overall bit rate : 2 542 Kbps
Writing application : VirtualDubMod 1.5.10.2 (build 2542/release)
Writing library : VirtualDubMod build 2542/release

Video
ID : 0
Format : MPEG-4 Visual
Format profile : Advanced Simple@L5
Format settings, BVOP : 2
Format settings, QPel : No
Format settings, GMC : No warppoints
Format settings, Matrix : Default (H.263)
Codec ID : XVID
Codec ID/Hint : XviD
Duration : 2h 3mn
Bit rate : 1 985 Kbps
Width : 720 pixels
Height : 304 pixels
Display aspect ratio : 2.35:1
Frame rate : 23.976 fps
Color space : YUV
Chroma subsampling : 4:2:0
Bit depth : 8 bits
Scan type : Progressive
Compression mode : Lossy
Bits/(Pixel*Frame) : 0.378
Stream size : 1.72 GiB (78%)
Writing library : XviD 1.1.2 (UTC 2006-11-01)

Audio
ID : 1
Format : AC-3
Format/Info : Audio Coding 3
Mode extension : CM (complete main)
Codec ID : 2000
Duration : 2h 3mn
Bit rate mode : Constant
Bit rate : 448 Kbps
Channel(s) : 6 channels
Channel positions : Front: L C R, Side: L R, LFE
Sampling rate : 48.0 KHz
Bit depth : 16 bits
Compression mode : Lossy
Stream size : 394 MiB (18%)
Alignment : Split accross interleaves

Descarga


DESCARGAR AQUI


Nota: Si encuentras un link caído avísame para volverlo a subir